Stereoplay CD 03-2019

+A -A
Autor
Beitrag
analogmc
Neuling
#1 erstellt: 10. Mrz 2019, 23:19
Sie tun es immer wieder!
Das wird als "Perfekte Klänge" betitelt!
Meine Frage hier wäre: "Welche Aussagekraft haben Tests mit solch komprimierten Titeln?"

foobar2000 1.4.2 / Dynamic Range Meter 1.1.1
log date: 2019-03-10 23:07:43

--------------------------------------------------------------------------------
Analyzed: Anders Aarum / Stereoplay 03-2019 - Perfekte Klänge von Ozella Music (1)
Dagobert Böhm / Stereoplay 03-2019 - Perfekte Klänge von Ozella Music (2)
Helge Lien Trio / Stereoplay 03-2019 - Perfekte Klänge von Ozella Music (3)
Hilde Louise Asbjoernsen / Stereoplay 03-2019 - Perfekte Klänge von Ozella Music (4)
Inwardness / Stereoplay 03-2019 - Perfekte Klänge von Ozella Music (5)
Jeanette Hubert / Stereoplay 03-2019 - Perfekte Klänge von Ozella Music (6)
Karl Seglem / Stereoplay 03-2019 - Perfekte Klänge von Ozella Music (7)
Mara & David / Stereoplay 03-2019 - Perfekte Klänge von Ozella Music (8)
Mezza/Ginsburg Ensemble / Stereoplay 03-2019 - Perfekte Klänge von Ozella Music (9)
Oddgeir Berg Trio / Stereoplay 03-2019 - Perfekte Klänge von Ozella Music (10)
Pete Alderton / Stereoplay 03-2019 - Perfekte Klänge von Ozella Music (11)
Rain Sultanov & Isfar Sarabski / Stereoplay 03-2019 - Perfekte Klänge von Ozella Music (12)
Randi Tytingvåg / Stereoplay 03-2019 - Perfekte Klänge von Ozella Music (13)
--------------------------------------------------------------------------------

DR Peak RMS Duration Track
--------------------------------------------------------------------------------
DR6 -1.50 dB -10.36 dB 4:34 10-Master Of Disaster
DR6 -0.91 dB -10.03 dB 3:40 13-The Sea
DR13 -0.70 dB -15.99 dB 4:46 09-Joe
DR9 -0.50 dB -11.18 dB 3:06 07-Swing Of It's Own
DR9 -0.95 dB -12.98 dB 4:01 02-One Hour Later
DR6 -0.99 dB -8.76 dB 4:17 08-See Me
DR8 -0.63 dB -10.25 dB 5:43 05-Eldblome
DR9 -0.49 dB -11.36 dB 3:59 03-The Sizzling Noise
DR10 -0.72 dB -11.86 dB 5:18 01-Mimesis
DR10 -0.53 dB -12.66 dB 4:24 06-Oldies
DR9 -0.49 dB -12.25 dB 3:57 04-I'm Sad
DR10 -0.70 dB -13.77 dB 4:18 11-Oblivion
DR13 -0.55 dB -18.65 dB 2:36 12-Future Song
--------------------------------------------------------------------------------

Number of tracks: 13
Official DR value: DR9

Samplerate: 44100 Hz
Channels: 2
Bits per sample: 16
Bitrate: 656 kbps
Codec: FLAC
================================================================================
Passat
Moderator
#2 erstellt: 11. Mrz 2019, 13:27
Ob die Musik komprimiert ist oder nicht kann man kaum am DR-Wert ablesen.

Manche Musik hat von Natur aus wenig Dynamik.
Nimm z.B. die in Restaurants etc. übliche Musik: Die hat von Natur aus keine Dynamik, weil so etwas bei Hintergrundberieselung stört.
Oder solche Sachen wie "Junge Frau klimpert auf der Gitarre und singt dazu". So etwas hat auch keine Dynamik.

Ob Musik komprimiert wurde oder nicht kann man im Grunde nur feststellen, wenn man das mit dem Masterband vergleicht oder die Original Noten zur Musik hat.

Grüße
Roman
Suche:
Das könnte Dich auch interessieren:
DYNAMIC RANGE METER
Sirvolkmar am 20.09.2012  –  Letzte Antwort am 17.10.2013  –  11 Beiträge
@Michassammy: Stereoplay CD beurteilt
Tantris am 27.09.2002  –  Letzte Antwort am 10.10.2002  –  10 Beiträge
Klangbewertungen in Stereoplay
Mohol am 12.01.2008  –  Letzte Antwort am 30.08.2015  –  66 Beiträge
Stereoplay Essentials "Ladies Choice".
sonnefreund am 26.01.2005  –  Letzte Antwort am 27.01.2005  –  3 Beiträge
CD's die nicht übersteuert sind zumindest.
Dennis50300 am 09.07.2014  –  Letzte Antwort am 21.07.2014  –  45 Beiträge
Eagles Farewell Tour???
tiji am 07.09.2005  –  Letzte Antwort am 08.09.2005  –  4 Beiträge
Porcupine Tree " anesthetize" Music Blu Ray
4-Kanal am 23.06.2010  –  Letzte Antwort am 29.06.2010  –  2 Beiträge
Music DVD
frosch006 am 19.10.2008  –  Letzte Antwort am 27.10.2008  –  5 Beiträge
Music Download CD Qualität ?
Michi.94 am 13.06.2010  –  Letzte Antwort am 27.08.2010  –  9 Beiträge
SACD von Stockfish Closer to the music von ebay gefälscht?
grisuhu am 15.01.2010  –  Letzte Antwort am 20.01.2010  –  9 Beiträge
Foren Archiv
2019

Anzeige

Aktuelle Aktion

Partner Widget schließen

  • beyerdynamic Logo
  • DALI Logo
  • SAMSUNG Logo
  • TCL Logo

Forumsstatistik Widget schließen

  • Registrierte Mitglieder861.322 ( Heute: 44 )
  • Neuestes MitgliedL560
  • Gesamtzahl an Themen1.436.234
  • Gesamtzahl an Beiträgen19.330.338

Hersteller in diesem Thread Widget schließen