Pioneer LX-55 FLV ruckelt

+A -A
Autor
Beitrag
cyberds19
Stammgast
#1 erstellt: 01. Nov 2012, 13:51
hatte mir ausm internet mal testweise nen FLV gezogen und dieses ruckelt.
kann das einer bestätigen ?
bilde mir ein, vor dem firmwareupdate lief es flüssig.

format der datei wäre

Format : Flash Video
File size : 206 MiB
Duration : 13mn 57s
Overall bit rate : 2 062 Kbps
Tagging application : Yet Another Metadata Injector for FLV - Version 1.8

Video
Format : AVC
Format/Info : Advanced Video Codec
Format profile : High@L3.1
Format settings, CABAC : Yes
Format settings, ReFrames : 4 frames
Codec ID : 7
Duration : 13mn 56s
Bit rate : 2 048 Kbps
Width : 960 pixels
Height : 540 pixels
Display aspect ratio : 16:9
Frame rate mode : Constant
Frame rate : 29.970 fps
Color space : YUV
Chroma subsampling : 4:2:0
Bit depth : 8 bits
Scan type : Progressive
Bits/(Pixel*Frame) : 0.132
Stream size : 205 MiB (100%)
Writing library : x264 core 119
Encoding settings : cabac=1 / ref=2 / deblock=1:0:0 / analyse=0x3:0x113 / me=hex / subme=6 / psy=1 / psy_rd=1.00:0.00 / mixed_ref=0 / me_range=16 / chroma_me=1 / trellis=0 / 8x8dct=1 / cqm=0 / deadzone=21,11 / fast_pskip=1 / chroma_qp_offset=-2 / threads=1 / sliced_threads=0 / nr=0 / decimate=1 / interlaced=0 / bluray_compat=0 / constrained_intra=0 / bframes=16 / b_pyramid=2 / b_adapt=0 / b_bias=0 / direct=2 / weightb=1 / open_gop=0 / weightp=2 / keyint=250 / keyint_min=25 / scenecut=40 / intra_refresh=0 / rc_lookahead=40 / rc=2pass / mbtree=1 / bitrate=2048 / ratetol=1.0 / qcomp=0.50 / qpmin=10 / qpmax=51 / qpstep=4 / cplxblur=20.0 / qblur=0.5 / ip_ratio=1.41 / aq=1:1.00

Audio
Format : AAC
Format/Info : Advanced Audio Codec
Format profile : LC
Codec ID : 10
Duration : 13mn 57s
Bit rate : 3 701 bps
Channel(s) : 2 channels
Channel positions : Front: L R
Sampling rate : 44.1 KHz
Compression mode : Lossy
Stream size : 774 KiB (0%)
cyberds19
Stammgast
#2 erstellt: 01. Nov 2012, 14:08
hab mal das http://www.youtube.com/watch?v=cSnkWzZ7ZAA
480p flv genommen, da schmiert der player ab.
beim 1080p mp4 geht
Suche:
Das könnte Dich auch interessieren:
Pioneer BDP LX 55 Silber
sino34 am 26.09.2013  –  Letzte Antwort am 27.09.2013  –  5 Beiträge
Pioneer BDP LX 55 + SC LX 86 - SACD Probleme
Pauliiluap1 am 17.02.2013  –  Letzte Antwort am 18.02.2013  –  2 Beiträge
Pioneer LX 55 oder Onkyo 809
Urli am 23.04.2013  –  Letzte Antwort am 24.04.2013  –  4 Beiträge
Pioneer BDP-LX 71
MvH72 am 24.07.2008  –  Letzte Antwort am 02.02.2011  –  29 Beiträge
Pioneer BDP-LX 08
U.Predator am 08.03.2009  –  Letzte Antwort am 08.03.2009  –  2 Beiträge
Pioneer LX-71 codefree ?
Roketeer am 29.10.2009  –  Letzte Antwort am 28.02.2010  –  2 Beiträge
Fehler bei meinem LX 55
Kratzfest am 20.10.2015  –  Letzte Antwort am 21.10.2015  –  2 Beiträge
Pioneer BDP LX-55 Codefree und Multiregion Freischaltung
Mulgrand am 18.01.2013  –  Letzte Antwort am 29.01.2013  –  7 Beiträge
Pioneer LX-71 Firmware Update!
malason am 19.11.2008  –  Letzte Antwort am 05.12.2009  –  6 Beiträge
Tonprobleme mit Pioneer LX-71
malason am 23.02.2009  –  Letzte Antwort am 09.03.2009  –  7 Beiträge
Foren Archiv
2012

Anzeige

Produkte in diesem Thread Widget schließen

Aktuelle Aktion

Partner Widget schließen

  • beyerdynamic Logo
  • DALI Logo
  • SAMSUNG Logo
  • TCL Logo

Forumsstatistik Widget schließen

  • Registrierte Mitglieder849.697 ( Heute: 2 )
  • Neuestes Mitgliedaudiophi
  • Gesamtzahl an Themen1.417.491
  • Gesamtzahl an Beiträgen18.987.458

Hersteller in diesem Thread Widget schließen