Sie sind bereits Community-Mitglied? Dann loggen Sie sich hier ein!

Auto-Login
Passwort vergessen?


Fehler in Cue Sheet !

+A -A
Autor
Beitrag
E-Lock
Ist häufiger hier
#1 erstellt: 14. Feb 2010, 16:00
Hallo,

folgendes Problem:

Ich habe meine Doppel-CD "Pink Floyd The Wall" als Flac inclusive Cue Sheet mit Müh und Not auf Festplatte bekommen.

Die beiden CDs bestehen aus nur 2 Dateien. Jetzt wollte ich CD_1 und 2 mit Hilfe von EAC splitten:

Also EAC: "Hilfsmittel, Teile Wav mit Cue Sheet, Mit Pausen."

Danach wähle ich (die extra dafür erstellte) Wav, dann die dazu gehörende Cue Sheet.

Statt jetzt die Wav zu teilen, kommt immer die oben erwähnte Fehlermeldung: "Fehler in Cue Sheet"

Muss ich an der Cue Sheet etwas ändern ??

Muss an den Pauseneinstellungen was geändert werden ??

Die Datei soll nicht gebrannt werden, sondern einfach nur gesplittet auf Festplatte bleiben.



Hier mal die Cue Sheet:


CD: 1


PERFORMER "Pink Floyd"
TITLE "The Wall CD1"
FILE "Pink Floyd - The Wall CD1 (1979) [FLAC].flac" WAVE
TRACK 01 AUDIO
TITLE "In the Flesh?"
INDEX 01 00:00:00
TRACK 02 AUDIO
TITLE "The Thin Ice"
INDEX 01 03:21:69
TRACK 03 AUDIO
TITLE "Another Brick in the Wall, Part 1"
INDEX 01 05:46:57
TRACK 04 AUDIO
TITLE "The Happiest Days of Our Lives"
INDEX 01 09:32:00
TRACK 05 AUDIO
TITLE "Another Brick in the Wall, Part 2"
INDEX 01 10:52:59
TRACK 06 AUDIO
TITLE "Mother"
INDEX 01 14:52:64
TRACK 07 AUDIO
TITLE "Goodbye Blue Sky"
INDEX 01 20:22:54
TRACK 08 AUDIO
TITLE "Empty Spaces"
INDEX 01 23:15:37
TRACK 09 AUDIO
TITLE "Young Lust"
INDEX 01 25:19:23
TRACK 10 AUDIO
TITLE "One of My Turns"
INDEX 01 28:48:37
TRACK 11 AUDIO
TITLE "Don't Leave Me Now"
INDEX 01 32:25:28
TRACK 12 AUDIO
TITLE "Another Brick in the Wall, Part 3"
INDEX 01 36:41:37
TRACK 13 AUDIO
TITLE "Goodbye Cruel World"
INDEX 01 38:24:05



CD: 2



PERFORMER "Pink Floyd"
TITLE "The Wall CD2"
FILE "Pink Floyd - The Wall CD2 (1979) [FLAC].flac" WAVE
TRACK 01 AUDIO
TITLE "Hey You"
INDEX 01 00:00:00
TRACK 02 AUDIO
TITLE "Is There Anybody Out There?"
INDEX 01 04:44:26
TRACK 03 AUDIO
TITLE "Nobody Home"
INDEX 01 07:32:61
TRACK 04 AUDIO
TITLE "Vera"
INDEX 01 11:09:54
TRACK 05 AUDIO
TITLE "Bring the Boys Back Home"
INDEX 01 12:31:46
TRACK 06 AUDIO
TITLE "Comfortably Numb"
INDEX 01 13:48:26
TRACK 07 AUDIO
TITLE "The Show Must Go On"
INDEX 01 20:12:51
TRACK 08 AUDIO
TITLE "In the Flesh"
INDEX 01 21:49:64
TRACK 09 AUDIO
TITLE "Run Like Hell"
INDEX 01 26:05:12
TRACK 10 AUDIO
TITLE "Waiting for the Worms"
INDEX 01 30:28:41
TRACK 11 AUDIO
TITLE "Stop"
INDEX 01 34:24:71
TRACK 12 AUDIO
TITLE "The Trial"
INDEX 01 34:57:44
TRACK 13 AUDIO
TITLE "Outside the Wall"
INDEX 01 40:15:15


Beste Grüsse und vielen Dank im Voraus,

E-Lock


[Beitrag von E-Lock am 14. Feb 2010, 16:02 bearbeitet]
RamonesMania
Stammgast
#2 erstellt: 14. Feb 2010, 16:32
Uups, heute scheint der Tag der Cue-Sheets zu sein: Klick.

Es sieht so aus als ob in deinen Cue-Sheets gar keine Pausen-Infos gespeichert sind.

Versuch bitte mal in EAC das Teilen nach 'einzelnen Indexen', klappt das?

Ganz blöde Frage: Wenn du die Songs sowieso einzeln auf die Platte haben willst, warum dann der Umweg über eine Image mit Cue-Sheet?
E-Lock
Ist häufiger hier
#3 erstellt: 14. Feb 2010, 16:51
Hat sich erledigt....
RamonesMania
Stammgast
#4 erstellt: 14. Feb 2010, 17:16

E-Lock schrieb:
Hat sich erledigt.... :prost


Wo hat es geklemmt?
Suche:
Das könnte Dich auch interessieren:
Cue sheet - flac - cover ?
brause am 29.07.2013  –  Letzte Antwort am 06.08.2013  –  10 Beiträge
Streitgespräch: CUE sheet oder m3u ?
ÃúÐ!òph!l am 31.03.2006  –  Letzte Antwort am 07.05.2006  –  12 Beiträge
EAC Erfahrung, Problem mit CUE Sheet
Heinachi am 05.10.2008  –  Letzte Antwort am 19.12.2008  –  4 Beiträge
Flac Cue Sheet - wie bekomme ich daraus Flac-Dateien?
Soundwelle am 03.02.2015  –  Letzte Antwort am 13.06.2015  –  20 Beiträge
Fragen zu Playlist und Cue-Sheet
buayadarat am 15.04.2012  –  Letzte Antwort am 26.04.2012  –  7 Beiträge
accurate cue+wav (EAC) nachträglich in wavpack encoden
uwedamm am 10.10.2012  –  Letzte Antwort am 12.10.2012  –  5 Beiträge
EAC & CUE Sheets: Wie Original CD aus gesplitteten FLACs wiederherstellen?
EddieTheHead am 21.11.2009  –  Letzte Antwort am 25.11.2009  –  25 Beiträge
Aus einer Ape mit Cue einzelne Flacs machen ?
Oberförster am 06.02.2010  –  Letzte Antwort am 06.02.2010  –  5 Beiträge
mp3 trotz Cue-Datei als Daten-CD brennen ?
holgaaar am 04.01.2009  –  Letzte Antwort am 10.01.2009  –  12 Beiträge
Flac-Cue
Savini6437 am 27.05.2016  –  Letzte Antwort am 29.05.2016  –  5 Beiträge
Foren Archiv
2010

Anzeige

Produkte in diesem Thread Widget schließen

Aktuelle Aktion

Hersteller in diesem Thread Widget schließen

  • Crypto

Forumsstatistik Widget schließen

  • Registrierte Mitglieder807.629 ( Heute: 20 )
  • Neuestes MitgliedMetalhead88
  • Gesamtzahl an Themen1.345.815
  • Gesamtzahl an Beiträgen17.672.717