Sie sind bereits Community-Mitglied? Dann loggen Sie sich hier ein!

Auto-Login
Passwort vergessen?


EAC Lesefehler

+A -A
Autor
Beitrag
Menjuel
Ist häufiger hier
#1 erstellt: 13. Okt 2013, 20:18
Hallo liebe HiFi-Gemeinde,
ich habe folgendes Problem:
Ich habe versucht mit EAC mein neu-erworbenes Ludivico Einaudi Album zu rippen. Der Ölfilm ist sogar noch drauf. Mit all meinen anderen Alben hat das bisher super funktioniert, nur bei diesem Album bei CD 2 hat zum Einen die Pausenerkennung bei Track 11 nur mit der Einstellung: Ungenau funktioniert und zum Anderen gab es dann beim rippen bei den Tracks 4 bis 8 Lese- und Synchronisationsfehler. Nach wirklich langer Zeit war der Vorgang dann fertig und ich habe vollständige Flac-Dateien rausbekommen. Also wie gewohnt. Sind diese Dateien nun trotz Lesefehler qualitativ genausogut wie die ohne Lesefehler ?

Danke
Menjuel
*Nightwolf*
Inventar
#2 erstellt: 13. Okt 2013, 23:33
Ich denke, per Accurate Rip lässt sich das nicht verifizieren?

Was meinst du mit Ölfilm? Wenn irgendwas auf der CD klebt, dann runter damit!

Vielleicht kannst du das Ganze mal versuchen, mit einem anderen Laufwerk zu rippen, eventuell bei einem Freund? Dann hättest du Gewissheit.

Bei Lesefehlern sind die Daten soweit ich weiß, nicht identisch mit denen auf der CD und das Programm versucht selbst, die Lücken zu füllen, die nicht ausgelesen werden konnten.
Menjuel
Ist häufiger hier
#3 erstellt: 13. Okt 2013, 23:44
Das gibt mir EAC aus, nachdem der Vorgang fertig war. Accurate Rip hat track 4-8 nicht verifiziert.

Unbenannt7

Mit Ölfilm meine ich den dünnen Film, der bei neuen CD'S auf der Rückseite ist. Aber ich rippe alle meine CD's direkt nach dem Kauf und bisher gabs keine Probleme.
*Nightwolf*
Inventar
#4 erstellt: 14. Okt 2013, 00:10
Da bleibt dir wohl nur übrig, ein anderes Laufwerk zu versuchen.

Es kann aber auch mal vorkommen, dass eine CD ab Werk defekt ist. Dann bleibt dir nur der Umtausch. Kannst du die betreffenden Tracks mit einem normalen CD-Player abspielen? Wenn nicht, ist das ein guter Rückgabegrund.
Menjuel
Ist häufiger hier
#5 erstellt: 14. Okt 2013, 11:32
Die Cd wird von all meinen Playern fehlerfrei abgespielt. Und auch die fertigen vermeintlich fehlerhaften flac Dateien spielen fehlerfrei. Ich werds mal mit einem anderes Laufwerk versuchen.

Hier ist noch das Logfile (ich weiß leider nicht wie man so lange Beiträge "verstecken" kann) :

Exact Audio Copy V1.0 beta 3 from 29. August 2011

EAC extraction logfile from 13. October 2013, 17:08

Ludovico Einaudi / Islands: Essential Einaudi (CD2)

Used drive : HL-DT-STDVDRAM GH22NS40 Adapter: 1 ID: 1

Read mode : Secure
Utilize accurate stream : Yes
Defeat audio cache : No
Make use of C2 pointers : No

Read offset correction : 667
Overread into Lead-In and Lead-Out : No
Fill up missing offset samples with silence : Yes
Delete leading and trailing silent blocks : No
Null samples used in CRC calculations : Yes
Used interface : Native Win32 interface for Win NT & 2000
Gap handling : Appended to previous track

Used output format : User Defined Encoder
Selected bitrate : 896 kBit/s
Quality : High
Add ID3 tag : No
Command line compressor : C:\Users\Manu\Downloads\flac-1.3.0\flac.exe
Additional command line options : -5 -T "Artist=%artist%" -T "Title=%title%" -T "Album=%albumtitle%" -T "Date=%year%" -T "Tracknumber=%tracknr%" -T "Genre=%genre%" %source% -o %dest%


TOC of the extracted CD

Track | Start | Length | Start sector | End sector
---------------------------------------------------------
1 | 0:00.00 | 5:07.40 | 0 | 23064
2 | 5:07.40 | 3:15.06 | 23065 | 37695
3 | 8:22.46 | 3:13.68 | 37696 | 52238
4 | 11:36.39 | 3:04.28 | 52239 | 66066
5 | 14:40.67 | 5:57.00 | 66067 | 92841
6 | 20:37.67 | 5:38.37 | 92842 | 118228
7 | 26:16.29 | 6:39.19 | 118229 | 148172
8 | 32:55.48 | 12:11.35 | 148173 | 203032
9 | 45:07.08 | 6:59.44 | 203033 | 234501
10 | 52:06.52 | 5:43.49 | 234502 | 260275
11 | 57:50.26 | 5:23.35 | 260276 | 284535
12 | 63:13.61 | 4:40.70 | 284536 | 305605
13 | 67:54.56 | 11:02.12 | 305606 | 355267


Track 1

Filename D:\Arche\Music\Gerippte Alben\Ludovico Einaudi\Ludovico Einaudi\[2011] Islands- Essential Einaudi (CD2)\01. High Heels.wav

Pre-gap length 0:00:02.00

Peak level 100.0 %
Extraction speed 1.7 X
Track quality 99.8 %
Test CRC 9AADB13C
Copy CRC 9AADB13C
Accurately ripped (confidence 39) [37AFACA6] (AR v2)
Copy OK

Track 2

Filename D:\Arche\Music\Gerippte Alben\Ludovico Einaudi\Ludovico Einaudi\[2011] Islands- Essential Einaudi (CD2)\02. White Night.wav

Pre-gap length 0:00:01.58

Peak level 75.4 %
Extraction speed 1.9 X
Track quality 99.8 %
Test CRC 0D4532B8
Copy CRC 0D4532B8
Accurately ripped (confidence 40) [FCB39AB1] (AR v2)
Copy OK

Track 3

Filename D:\Arche\Music\Gerippte Alben\Ludovico Einaudi\Ludovico Einaudi\[2011] Islands- Essential Einaudi (CD2)\03. L'Origine Nascosta.wav

Pre-gap length 0:00:01.58

Peak level 99.5 %
Extraction speed 2.2 X
Track quality 99.9 %
Test CRC 019E0273
Copy CRC 019E0273
Accurately ripped (confidence 39) [23424C32] (AR v2)
Copy OK

Track 4

Filename D:\Arche\Music\Gerippte Alben\Ludovico Einaudi\Ludovico Einaudi\[2011] Islands- Essential Einaudi (CD2)\04. Love is a Mystery.wav

Pre-gap length 0:00:01.58

Suspicious position 0:00:36
Suspicious position 0:00:38 - 0:00:39
Suspicious position 0:00:41 - 0:00:42
Suspicious position 0:00:44
Suspicious position 0:01:43
Suspicious position 0:01:47
Suspicious position 0:01:50
Suspicious position 0:01:52
Suspicious position 0:02:08
Suspicious position 0:02:19
Suspicious position 0:02:59

Peak level 92.5 %
Extraction speed 0.1 X
Track quality 97.4 %
Test CRC 14E048E3
Copy CRC 87CBA8B8
Cannot be verified as accurate (confidence 39) [9ADBA40D], AccurateRip returned [15C76C31] (AR v2)
Copy finished

Track 5

Filename D:\Arche\Music\Gerippte Alben\Ludovico Einaudi\Ludovico Einaudi\[2011] Islands- Essential Einaudi (CD2)\05. Monday.wav

Pre-gap length 0:00:01.58

Suspicious position 0:00:05
Suspicious position 0:00:19
Suspicious position 0:00:28

Peak level 80.4 %
Extraction speed 0.3 X
Track quality 98.2 %
Test CRC 74B4A4ED
Copy CRC BDCBE395
Cannot be verified as accurate (confidence 40) [AA271AA1], AccurateRip returned [146E5C8B] (AR v2)
Copy finished

Track 6

Filename D:\Arche\Music\Gerippte Alben\Ludovico Einaudi\Ludovico Einaudi\[2011] Islands- Essential Einaudi (CD2)\06. Lady Labyrinth(remix).wav

Pre-gap length 0:00:01.58

Suspicious position 0:00:54
Suspicious position 0:01:20
Suspicious position 0:04:58
Suspicious position 0:05:31 - 0:05:36

Peak level 68.6 %
Extraction speed 0.2 X
Track quality 97.7 %
Test CRC 4EF3FEBC
Copy CRC 05F4CE7B
Cannot be verified as accurate (confidence 39) [395B6A61], AccurateRip returned [50D48E94] (AR v2)
Copy finished

Track 7

Filename D:\Arche\Music\Gerippte Alben\Ludovico Einaudi\Ludovico Einaudi\[2011] Islands- Essential Einaudi (CD2)\07. Solo.wav

Pre-gap length 0:00:01.58

Suspicious position 0:04:03 - 0:04:05
Suspicious position 0:04:13
Suspicious position 0:04:50
Suspicious position 0:04:58
Suspicious position 0:05:12
Suspicious position 0:05:14
Suspicious position 0:06:36

Peak level 94.9 %
Extraction speed 0.2 X
Track quality 97.8 %
Test CRC F5407FBD
Copy CRC C8DCAF7F
Cannot be verified as accurate (confidence 39) [C9A2F4E0], AccurateRip returned [17F64465] (AR v2)
Copy finished

Track 8

Filename D:\Arche\Music\Gerippte Alben\Ludovico Einaudi\Ludovico Einaudi\[2011] Islands- Essential Einaudi (CD2)\08. Ancora.wav

Pre-gap length 0:00:01.58

Suspicious position 0:04:11
Suspicious position 0:08:19
Suspicious position 0:12:06 - 0:12:07

Peak level 86.8 %
Extraction speed 0.4 X
Track quality 98.3 %
Test CRC 7C9AEF04
Copy CRC 1C5CBCC8
Cannot be verified as accurate (confidence 39) [18345C2E], AccurateRip returned [41195132] (AR v2)
Copy finished

Track 9

Filename D:\Arche\Music\Gerippte Alben\Ludovico Einaudi\Ludovico Einaudi\[2011] Islands- Essential Einaudi (CD2)\09. Andare.wav

Pre-gap length 0:00:01.58

Peak level 76.4 %
Extraction speed 2.5 X
Track quality 99.7 %
Test CRC 7638237E
Copy CRC 7638237E
Accurately ripped (confidence 36) [248C49A0] (AR v2)
Copy OK

Track 10

Filename D:\Arche\Music\Gerippte Alben\Ludovico Einaudi\Ludovico Einaudi\[2011] Islands- Essential Einaudi (CD2)\10. Eros(remix).wav

Pre-gap length 0:00:01.58

Peak level 72.4 %
Extraction speed 2.9 X
Track quality 99.7 %
Test CRC C6222A23
Copy CRC C6222A23
Accurately ripped (confidence 39) [244079F2] (AR v2)
Copy OK

Track 11

Filename D:\Arche\Music\Gerippte Alben\Ludovico Einaudi\Ludovico Einaudi\[2011] Islands- Essential Einaudi (CD2)\11. Indaco.wav

Pre-gap length 0:00:01.58

Peak level 100.0 %
Extraction speed 3.6 X
Track quality 99.9 %
Test CRC 18AEBC29
Copy CRC 18AEBC29
Accurately ripped (confidence 40) [1B72ADF9] (AR v2)
Copy OK

Track 12

Filename D:\Arche\Music\Gerippte Alben\Ludovico Einaudi\Ludovico Einaudi\[2011] Islands- Essential Einaudi (CD2)\12. Fly.wav

Pre-gap length 0:00:01.58

Peak level 94.9 %
Extraction speed 4.1 X
Track quality 100.0 %
Test CRC E01C37FC
Copy CRC E01C37FC
Accurately ripped (confidence 40) [4E590799] (AR v2)
Copy OK

Track 13

Filename D:\Arche\Music\Gerippte Alben\Ludovico Einaudi\Ludovico Einaudi\[2011] Islands- Essential Einaudi (CD2)\13. Oltremare.wav

Pre-gap length 0:00:01.58

Peak level 99.7 %
Extraction speed 4.3 X
Track quality 99.9 %
Test CRC 132C904B
Copy CRC 132C904B
Accurately ripped (confidence 40) [CCF28785] (AR v2)
Copy OK


8 Track(s) akkurat gelesen
5 Track(s) nicht als akkurat verifiziert

Some tracks could not be verified as accurate

There were errors

End of status report

==== Log checksum FF8D9CAB39855AAAB748084E865C4E9E6B5073EA87382D18F239AD511FF69BA8 ====


[Beitrag von Menjuel am 14. Okt 2013, 11:46 bearbeitet]
NuTSkuL
Ist häufiger hier
#6 erstellt: 14. Okt 2013, 15:11
hast du EAC denn richtig eingestellt? meine mich zu erinnern, dass der offset teilweise zu solchen problemen führen konnte.
ansonsten kann ich dir nur den CR Ripper von dbpoweramp ans herz legen. kostet zwar geld, ist aber nach meiner meinung zuverlässiger und einfacher als EAC
j!more
Inventar
#7 erstellt: 15. Okt 2013, 17:52
Aus den Logfiles geht klar hervor, dass einige Tracks nicht exakt ausgelesen werden konnten. Wenn diese Fehler interpoliert wurden, müssen sie nicht zwingend hörbar sein, aber der Rip ist halt fehlerhaft.

Hast Du mal ein anderes Laufwerk probiert, um das als Fehlerquelle auszuschließen? Wenn auch dort Fehler auftreten, hat die CD ein Problem. Unterschiedliche Laufwerke kommen mit problematischen CDs unterschiedlich gut zurecht. Was das eine Laufwerk aus dem Tritt bringt, kann vom anderen vielleicht gerade noch so gelesen werden.

Wenn auch ein Vergleichslaufwerk Probleme macht, solltest Du die CD umtauschen, wenn das noch geht.

Ich selbst verwende auch dbpoweramp, aber nicht weil es besser ist, sondern weil es mir komfortabler erscheint.


[Beitrag von j!more am 15. Okt 2013, 17:55 bearbeitet]
Menjuel
Ist häufiger hier
#8 erstellt: 15. Okt 2013, 21:08
Nein, ein anderes Laufwerk habe ich noch nicht getestet. Ich schau mal wann ich die Woche Zeit hab um das mal zu testen
Danke schonmal
cr
Moderator
#9 erstellt: 16. Okt 2013, 17:15
Keine meiner 2000 CDs hatte bisher einen Ölfilm. Waren alle staubtrocken und fettfrei.
Menjuel
Ist häufiger hier
#10 erstellt: 19. Okt 2013, 11:16
Ich weiß nicht ob es ein Öl-Film ist, aber wenn man nagelneue CD's mal anschaut sieht man noch so ein Glänzen, das mich an Öl erinnert. Aber ich kann mich auch täuschen
Menjuel
Ist häufiger hier
#11 erstellt: 13. Dez 2013, 12:22
So, tut mir leid, dass ich mich erst jetzt melde.
Das mit dem anderen Laufwerk hat wirklich geklappt. Bei Auslesemethode B hat er bei Track 11 wieder gehangen, aber mit Methode A hats super funktioniert und es gab auch keine Fehler bezüglich der Tracks. Danke an alle
MfG
Menjuel


[Beitrag von Menjuel am 13. Dez 2013, 12:22 bearbeitet]
Suche:
Das könnte Dich auch interessieren:
ALBUM ARTIST nach rippen leer (FLAC)
Tweety74 am 07.09.2014  –  Letzte Antwort am 23.09.2014  –  5 Beiträge
CD mit 4 Tracks mit Index rippen?
steklo am 12.08.2013  –  Letzte Antwort am 14.08.2013  –  15 Beiträge
CDs rippen: EAC und dBpoweramp
rockin.fan am 24.01.2015  –  Letzte Antwort am 26.01.2015  –  6 Beiträge
Cd-Laufwerk zum Rippen
ertzuo am 22.02.2010  –  Letzte Antwort am 06.03.2012  –  21 Beiträge
CD rippen mit welchem PLAYER?
testorosso am 08.02.2015  –  Letzte Antwort am 11.02.2015  –  19 Beiträge
Probleme (?) mit EAC
haudegen am 09.12.2007  –  Letzte Antwort am 10.12.2007  –  11 Beiträge
EAC Anfänger Fragen
Daiyama am 18.06.2009  –  Letzte Antwort am 19.06.2009  –  4 Beiträge
CD/DVD-Laufwerk zum Rippen von Audio CDs
Jone1973 am 15.06.2016  –  Letzte Antwort am 15.07.2016  –  18 Beiträge
Probleme beim rippen und Wiedergabe von CD
martinz am 18.06.2008  –  Letzte Antwort am 23.06.2008  –  8 Beiträge
dBpoweramp / EAC
steve_01 am 03.11.2013  –  Letzte Antwort am 11.11.2013  –  2 Beiträge
Foren Archiv

Anzeige

Aktuelle Aktion

Top Hersteller in PC & Hifi Widget schließen

  • Logitech
  • Bose
  • Teufel
  • Edifier
  • Creative
  • JBL
  • Behringer
  • Klipsch
  • Labtec

Forumsstatistik Widget schließen

  • Registrierte Mitglieder807.883 ( Heute: 71 )
  • Neuestes MitgliedHifinik
  • Gesamtzahl an Themen1.346.155
  • Gesamtzahl an Beiträgen17.678.550