Sie sind bereits Community-Mitglied? Dann loggen Sie sich hier ein!

Auto-Login
Passwort vergessen?


Probleme mit EAC CD Image

+A -A
Autor
Beitrag
Leety-Aravil
Neuling
#1 erstellt: 23. Nov 2006, 17:24
Hi!

Ich habe ein von EAC erstelltes Image. Es gibt zwei Dateien CDImage.cue und CDImage.flac. Mit keinem Programm war mit möglich die *.cue zu öffnen. Immer kam die fehlermeldung, dass zeile sieben fehlerhaft sei.

Hier der Inhalt der *.cue:

REM GENRE Dummy
REM DATE Dummy
REM DISCID Dummy
REM COMMENT "ExactAudioCopy v0.95b3"
PERFORMER "Dummy"
TITLE "Dummy"
FILE "CDImage.flac" WAVE
TRACK 01 AUDIO
TITLE "Dummy
PERFORMER "Dummy"
INDEX 00 00:00:00
INDEX 01 00:00:32
TRACK 02 AUDIO
TITLE "Dummy"
PERFORMER "Dummy"
INDEX 01 04:07:50

....

TRACK 27 AUDIO
TITLE "Dummy"
PERFORMER "Dummy"
INDEX 01 74:00:32

Ich habe alle Namen, die DiscID, Date, Genre, Comment durch "Dummy" ersetzt (nur in dem Beitrag, in der *.cue ist alles dann passend.

Zeile sieben wäre: FILE "CDImage.flac" WAVE

Die Imagedatei heißt auch CDImage.flac. Verstehe nicht warum es nicht funktioniert.

Gruß Aravil
Lustig
Stammgast
#2 erstellt: 23. Nov 2006, 17:37
Hallo,

Schonmal versucht des ding nicht als flac sondern wirklich als wav zu speichern?

Gruß
Andreas
Suche:
Das könnte Dich auch interessieren:
EAC - Probleme mit Feedb.
xlupex am 02.01.2007  –  Letzte Antwort am 02.01.2007  –  3 Beiträge
Probleme mit EAC
schneck001 am 20.02.2007  –  Letzte Antwort am 20.02.2007  –  9 Beiträge
Probleme (?) mit EAC
haudegen am 09.12.2007  –  Letzte Antwort am 10.12.2007  –  11 Beiträge
Probleme mit EAC und Cuesheets
Dr._Funkenstein am 13.02.2010  –  Letzte Antwort am 01.03.2010  –  18 Beiträge
dBpoweramp / EAC
steve_01 am 03.11.2013  –  Letzte Antwort am 11.11.2013  –  2 Beiträge
EAC Lesefehler
Menjuel am 13.10.2013  –  Letzte Antwort am 13.12.2013  –  11 Beiträge
EAC Hilfe
Richard3108 am 05.10.2008  –  Letzte Antwort am 11.10.2008  –  13 Beiträge
EAC & CUE Sheets: Wie Original CD aus gesplitteten FLACs wiederherstellen?
EddieTheHead am 21.11.2009  –  Letzte Antwort am 25.11.2009  –  25 Beiträge
EAC Erfahrung, Problem mit CUE Sheet
Heinachi am 05.10.2008  –  Letzte Antwort am 19.12.2008  –  4 Beiträge
Probleme mit neuer Version von EAC
Duckshark am 04.01.2011  –  Letzte Antwort am 06.01.2011  –  2 Beiträge
Foren Archiv
2006

Anzeige

Aktuelle Aktion

Top Hersteller in PC & Hifi Widget schließen

  • Logitech
  • Bose
  • Teufel
  • Edifier
  • Creative
  • Google
  • JBL
  • Behringer
  • Klipsch

Forumsstatistik Widget schließen

  • Registrierte Mitglieder806.995 ( Heute: 5 )
  • Neuestes MitgliedkleineMax
  • Gesamtzahl an Themen1.344.994
  • Gesamtzahl an Beiträgen17.658.027